Bullet Train 2022 in Dolby Vision

Sony OLED Mastering Display Reference

PQ HDR Dolby Vision Profile 8 Grading

INTERNAL TEKNO3D.COM HDR-X Dolby Vision

NEWS!

Soon we will launch a VIP/Donor section where you can download more Dolby Vision trailers and content not available for the general public.

TITLE: Bullet.Train.2022.TRAILER.INTERNAL.HDR-X.DoVi.DDP.5.1-TEKNO3D

TRANSFER DATE: 07/31/2022
ENCODER & HDR COLOR GRADING: TEKNO3D TEAM
SOURCE: SDR

Bullet Train TRAILER 2022 in Dolby Vision

VIDEO STREAM SPECS:

TRANSFER SIZE: 722 MiB
RUNTIME: 2 min 28 s
VIDEO CODEC: HEVC X265
ID                                       : 1
Format                                   : HEVC
Format/Info                              : High Efficiency Video Coding
Format profile                           : Main [email protected]@High
HDR format                               : Dolby Vision, Version 1.0, dvhe.08.06, BL+RPU, HDR10 compatible / SMPTE ST 2086, HDR10 compatible
Codec ID                                 : V_MPEGH/ISO/HEVC
Duration                                 : 2 min 27 s
Bit rate                                 : 40.0 Mb/s
Width                                    : 3 840 pixels
Height                                   : 2 160 pixels
Display aspect ratio                     : 16:9
Frame rate mode                          : Constant
Frame rate                               : 23.976 (24000/1001) FPS
Color space                              : YUV
Chroma subsampling                       : 4:2:0
Bit depth                                : 10 bits
Bits/(Pixel*Frame)                       : 0.201
Stream size                              : 702 MiB (97%)
Title                                    : Bullet Train Trailer ( 2022 ) - Mastered in Dolby Vision by TEKNO3D.com
Default                                  : Yes
Forced                                   : No
Color range                              : Limited
Color primaries                          : BT.2020
Transfer characteristics                 : PQ
Matrix coefficients                      : BT.2020 non-constant
Mastering display color primaries        : BT.2020
Mastering display luminance              : min: 0.0050 cd/m2, max: 4000 cd/m2
Maximum Content Light Level              : 1000 cd/m2
Maximum Frame-Average Light Level        : 400 cd/m2
Audio
ID                                       : 2
Format                                   : E-AC-3
Format/Info                              : Enhanced AC-3
Commercial name                          : Dolby Digital Plus
Codec ID                                 : A_EAC3
Duration                                 : 2 min 28 s
Bit rate mode                            : Constant
Bit rate                                 : 1 152 kb/s
Channel(s)                               : 6 channels
Channel layout                           : L R C LFE Ls Rs
Sampling rate                            : 48.0 kHz
Frame rate                               : 62.500 FPS (768 SPF)
Compression mode                         : Lossy
Stream size                              : 20.3 MiB (3%)
Service kind                             : Complete Main
Default                                  : Yes
Forced                                   : No

DOWNLOAD LINKS:

Bullet Trailer Trailer in Dolby Vision Profile 8

Don’t forget to comment and leave feedback. Thank you!

2
0
Would love your thoughts, please comment.x
()
x