Avatar The Way of Water TRAILER 1 in Dolby Vision HDR10Plus

Sony OLED Mastering Display Reference

INTERNAL TEKNO3D.COM HDR-X Dolby Vision & HDR10+

Version 1.0.2 – Dolby Vision with Dolby Digital Plus 2.0

NEWS!

Soon we will launch a VIP/Donor section where you can download more Dolby Vision trailers and content not available for the general public.

TITLE: Avatar: The Way of Water (2022) – Mastered by TEKNO3D.com in Dolby Vision & HDR10+

TRANSFER DATE: 11/04/2022
ENCODER & HDR COLOR GRADING: TEKNO3D TEAM
SOURCE: SDR ProRes

Avatar: The Way of Water TRAILER 1 (2022) Dolby Vision HDR10+

VIDEO STREAM SPECS:

TRANSFER SIZE: 925 MiB
RUNTIME: 2 min 48 s
VIDEO CODEC: HEVC X265
ID                                       : 1
Format                                   : HEVC
Format/Info                              : High Efficiency Video Coding
Format profile                           : Main [email protected]@High
HDR format                               : Dolby Vision, Version 1.0, dvhe.08.06, BL+RPU, HDR10 compatible / SMPTE ST 2086, HDR10 compatible
Codec ID                                 : V_MPEGH/ISO/HEVC
Duration                                 : 2 min 48 s
Bit rate                                 : 44.4 Mb/s
Width                                    : 3 840 pixels
Height                                   : 2 160 pixels
Display aspect ratio                     : 16:9
Frame rate mode                          : Constant
Frame rate                               : 23.976 (24000/1001) FPS
Color space                              : YUV
Chroma subsampling                       : 4:2:0
Bit depth                                : 10 bits
Bits/(Pixel*Frame)                       : 0.223
Stream size                              : 894 MiB (97%)
Title                                    : Avatar: The Way of Water (2022) - Mastered by TEKNO3D.com in Dolby Vision
Language                                 : English
Default                                  : Yes
Forced                                   : No
Color range                              : Limited
Color primaries                          : BT.2020
Transfer characteristics                 : PQ
Matrix coefficients                      : BT.2020 non-constant
Mastering display color primaries        : BT.2020
Mastering display luminance              : min: 0.0001 cd/m2, max: 1000 cd/m2
Maximum Content Light Level              : 1000 cd/m2
Maximum Frame-Average Light Level        : 400 cd/m2

Audio
ID                                       : 2
Format                                   : E-AC-3
Format/Info                              : Enhanced AC-3
Commercial name                          : Dolby Digital Plus
Codec ID                                 : A_EAC3
Duration                                 : 2 min 48 s
Bit rate mode                            : Constant
Bit rate                                 : 1 536 kb/s
Channel(s)                               : 2 channels
Channel layout                           : L R
Sampling rate                            : 48.0 kHz
Frame rate                               : 62.500 FPS (768 SPF)
Compression mode                         : Lossy
Stream size                              : 30.9 MiB (3%)
Title                                    : Dolby Digital Plus 2.0
Language                                 : English
Service kind                             : Complete Main
Default                                  : Yes
Forced                                   : No

DOWNLOAD LINKS:

Version 1.0.2:

Avatar The Way of Water 2022 TRAILER 1 in Dolby Vision with Dolby Digital Plus 2.0

Create your own HDR Videos today. Check our new 3DLuts: TEKNO3D Luts Store

Join our Internal Community today and discover the best HDR content available: Join Us

Don’t forget to comment and leave feedback. Thank you!

5
0
Would love your thoughts, please comment.x
()
x