Avatar: The Way of Water IMAX Dolby Vision HDR10+

Sony OLED Mastering Display Reference

INTERNAL TEKNO3D.COM HDR-X Dolby Vision & HDR10+

NEWS!

Soon we will launch a VIP/Donor section where you can download more Dolby Vision trailers and content not available for the general public.

TITLE: Avatar.The.Way.of.Water.2022.TRAILER.INTERNAL.HDR-X.DV.HDR10+.DDP5.1-TEKNO3D

TRANSFER DATE: 10/24/2022
ENCODER & HDR COLOR GRADING: TEKNO3D TEAM
SOURCE: SDR IMAX

Avatar: The Way of Water Dolby Vision HDR10+ Trailer

VIDEO STREAM SPECS:

TRANSFER SIZE: 879 MiB
RUNTIME: 1 min 53 s
VIDEO CODEC: HEVC X265
ID                                       : 1
Format                                   : HEVC
Format/Info                              : High Efficiency Video Coding
Format profile                           : Main [email protected]@High
HDR format                               : Dolby Vision, Version 1.0, dvhe.08.06, BL+RPU, HDR10 compatible / SMPTE ST 2094 App 4, Version 1, HDR10+ Profile B compatible
Codec ID                                 : V_MPEGH/ISO/HEVC
Duration                                 : 1 min 53 s
Bit rate                                 : 60.0 Mb/s
Width                                    : 3 840 pixels
Height                                   : 2 160 pixels
Display aspect ratio                     : 16:9
Frame rate mode                          : Constant
Frame rate                               : 24.000 FPS
Color space                              : YUV
Chroma subsampling                       : 4:2:0
Bit depth                                : 10 bits
Bits/(Pixel*Frame)                       : 0.301
Stream size                              : 811 MiB (92%)
Title                                    : Avatar: The Way of Water (2022) - Mastered by TEKNO3D.com in Dolby Vision & HDR10+
Language                                 : English
Default                                  : Yes
Forced                                   : No
Color range                              : Limited
Color primaries                          : BT.2020
Transfer characteristics                 : PQ
Matrix coefficients                      : BT.2020 non-constant
Mastering display color primaries        : BT.2020
Mastering display luminance              : min: 0.0001 cd/m2, max: 1000 cd/m2
Maximum Content Light Level              : 1000 cd/m2
Maximum Frame-Average Light Level        : 400 cd/m2
Audio #1
ID                                       : 2
Format                                   : E-AC-3
Format/Info                              : Enhanced AC-3
Commercial name                          : Dolby Digital Plus
Codec ID                                 : A_EAC3
Duration                                 : 1 min 42 s
Bit rate mode                            : Constant
Bit rate                                 : 1 536 kb/s
Channel(s)                               : 6 channels
Channel layout                           : L R C LFE Ls Rs
Sampling rate                            : 48.0 kHz
Frame rate                               : 62.500 FPS (768 SPF)
Compression mode                         : Lossy
Stream size                              : 18.8 MiB (2%)
Title                                    : Dolby Digital Plus 5.1
Language                                 : English
Service kind                             : Complete Main
Default                                  : Yes
Forced                                   : No

Audio #2
ID                                       : 3
Format                                   : DTS XLL
Format/Info                              : Digital Theater Systems
Commercial name                          : DTS-HD Master Audio
Codec ID                                 : A_DTS
Duration                                 : 1 min 42 s
Bit rate mode                            : Variable
Bit rate                                 : 4 041 kb/s
Channel(s)                               : 6 channels
Channel layout                           : C L R Ls Rs LFE
Sampling rate                            : 48.0 kHz
Frame rate                               : 93.750 FPS (512 SPF)
Bit depth                                : 24 bits
Compression mode                         : Lossless
Stream size                              : 49.4 MiB (6%)
Title                                    : DTS-HD 5.1
Language                                 : English
Default                                  : No
Forced                                   : No

DOWNLOAD LINKS:

Avatar The Way of Water TRAILER in Dolby Vision HDR10+

Don’t forget to comment and leave feedback. Thank you!

0
Would love your thoughts, please comment.x
()
x